Warning! Do NOT Download Without a VPN!
Your IP Address is .   Location is
Your Internet Provider and Government can track your download activities! Hide your IP ADDRESS with a VPN!
We strongly recommend using a VPN service to anonymize your torrent downloads. It's FREE!
START YOUR FREE TRIAL NOW!

Torrent Details

[MovCr com] - Avengers Infinity War (2018) 720p - BDRip - x264 - Original Auds -DD 5 1 - 448Kbps -  [Hindi (5 1) +  Eng] - ESub - MovC<font color=#ccc>r</font>
[MovCr com] - Avengers Infinity War (2018) 720p - BDRip - x264 - Original Auds -DD 5 1 - 448Kbps - [Hindi (5 1) + Eng] - ESub - MovCr
Size1.7 GB in 1 file
ReleasesAdded on 10/25/18 at 7:50am into the Movies category by Unknown.
Status0 seeds & 0 peers.
Hash456a7e80b28c34ae55b8340f0f436b455a7c670f
Rating
  • YourBT Visitors

Status This torrent has been verified.
*

Torrent Description

Avengers Infinity War (2018) 720p - BDRip - x264 - Original Auds -DD 5.1 - 448Kbps - [Hindi (5.1) + Eng] - ESub - MovCr


General
Unique ID : 180906346181185684177476312879810851395 (0x88194B8023B340CC94352CF7D3B5B243)
Complete name : D:[MovCr.com] - Avengers Infinity War (2018) 720p - BDRip - x264 - Original Auds -DD 5.1 - 448Kbps - [Hindi (5.1) + Eng] - ESub - MovCr.mkv
Format : Matroska
Format version : Version 4 / Version 2
File size : 1.71 GiB
Duration : 2 h 29 min
Overall bit rate : 1 638 kb/s
Movie name : www.MovCr.com
Encoded date : UTC 2018-08-17 09:44:01
Writing application : mkvmerge v11.0.0 ('Alive') 32bit
Writing library : libebml v1.3.4 + libmatroska v1.4.5

Video
ID : 1
Format : AVC
Format/Info : Advanced Video Codec
Format profile : [email protected]
Format settings : CABAC / 4 Ref Frames
Format settings, CABAC : Yes
Format settings, ReFrames : 4 frames
Codec ID : V_MPEG4/ISO/AVC
Duration : 2 h 29 min
Bit rate : 1 050 kb/s
Width : 1 280 pixels
Height : 534 pixels
Display aspect ratio : 2.40:1
Original display aspect rat : 2.40:1
Frame rate mode : Constant
Frame rate : 23.976 (24000/1001) FPS
Color space : YUV
Chroma subsampling : 4:2:0
Bit depth : 8 bits
Scan type : Progressive
Bits/(Pixel*Frame) : 0.064
Stream size : 1.10 GiB (64%)
Title : www.MovCr.com
Writing library : x264 core 155
Encoding settings : cabac=1 / ref=4 / deblock=1:-1:-1 / analyse=0x3:0x133 / me=umh / subme=9 / psy=1 / psy_rd=1.00:0.15 / mixed_ref=1 / me_range=24 / chroma_me=1 / trellis=2 / 8x8dct=1 / cqm=0 / deadzone=21,11 / fast_pskip=0 / chroma_qp_offset=-3 / threads=17 / lookahead_threads=1 / sliced_threads=0 / nr=0 / decimate=1 / interlaced=0 / bluray_compat=0 / constrained_intra=0 / bframes=3 / b_pyramid=2 / b_adapt=2 / b_bias=0 / direct=3 / weightb=1 / open_gop=0 / weightp=2 / keyint=250 / keyint_min=23 / scenecut=40 / intra_refresh=0 / rc_lookahead=60 / rc=2pass / mbtree=1 / bitrate=1050 / ratetol=1.0 / qcomp=0.60 / qpmin=0 / qpmax=69 / qpstep=4 / cplxblur=20.0 / qblur=0.5 / vbv_maxrate=31250 / vbv_bufsize=31250 / nal_hrd=none / filler=0 / ip_ratio=1.40 / aq=1:1.00
Default : Yes
Forced : Yes

Audio #1
ID : 2
Format : AC-3
Format/Info : Audio Coding 3
Codec ID : A_AC3
Duration : 2 h 29 min
Bit rate mode : Constant
Bit rate : 448 kb/s
Channel(s) : 6 channels
Channel positions : Front: L C R, Side: L R, LFE
Sampling rate : 44.1 kHz
Frame rate : 28.711 FPS (1536 SPF)
Bit depth : 16 bits
Compression mode : Lossy
Stream size : 479 MiB (27%)
Title : www.MovCr.com
Language : Hindi
Service kind : Complete Main
Default : Yes
Forced : No

Audio #2
ID : 3
Format : AAC
Format/Info : Advanced Audio Codec
Format profile : LC
Codec ID : A_AAC-2
Duration : 2 h 29 min
Bit rate : 137 kb/s
Channel(s) : 2 channels
Channel positions : Front: L R
Sampling rate : 48.0 kHz
Frame rate : 46.875 FPS (1024 SPF)
Compression mode : Lossy
Stream size : 146 MiB (8%)
Title : www.MovCr.com
Language : English
Default : No
Forced : No

Text #1
ID : 4
Format : UTF-8
Codec ID : S_TEXT/UTF8
Codec ID/Info : UTF-8 Plain Text
Duration : 2 h 28 min
Bit rate : 42 b/s
Count of elements : 1724
Stream size : 46.5 KiB (0%)
Title : www.MovCr.com
Default : Yes
Forced : Yes

Text #2
ID : 5
Format : UTF-8
Codec ID : S_TEXT/UTF8
Codec ID/Info : UTF-8 Plain Text
Duration : 2 h 28 min
Bit rate : 41 b/s
Count of elements : 1541
Stream size : 45.4 KiB (0%)
Title : www.MovCr.com
Language : English
Default : No
Forced : No







Similar Torrents

No Similar Torrents Found

If we find similar torrents, we normally show them right here. We couldn't find anything for "".

Torrent Trackers

Files inside this torrent

FILENAMESIZE
icon [MovCr.com] - Avengers Infinity War (2018) 720p - BDRip - x264 - Original Auds -DD 5.1 - 448Kbps - [Hindi (5.1) + Eng] - ESub - MovCr.mkv1.7 GB