Warning! Do NOT Download Without a VPN!
Your IP Address is .   Location is
Your Internet Provider and Government can track your download activities! Hide your IP ADDRESS with a VPN!
We strongly recommend using a VPN service to anonymize your torrent downloads. It's FREE!
START YOUR FREE TRIAL NOW!

Torrent Details

Avengers Infinity War (2018) English 720p WEB-DL X264 AC-3 5 1 4 6GB [MovCr]
Avengers Infinity War (2018) English 720p WEB-DL X264 AC-3 5 1 4 6GB [MovCr]
Size4.6 GB in 2 files
ReleasesAdded on 10/25/18 at 9:39am into the Movies category by Unknown.
Status0 seeds & 0 peers.
Hashc211d8a94c632a6e91665e7325667ae4e3622cbb
Rating
  • YourBT Visitors

Status This torrent has been verified.
*

Torrent Description

Visit Our Site www.movcr.com


Avengers Infinity War (2018) English 720p WEB-DL X264 AC-3 5.1 4.6GB [MovCr]


https://www.imdb.com/title/tt4154756/



General
Unique ID : 331250351125774571775270491434657917228 (0xF9347F3D806FB5F2F5DAA691F22E292C)
Complete name : [www.MovCr.com] Avengers Infinity War (2018) English 720p WEB-DL X264 AC-3 5.1 4.6GB [MovCr]www.MovCr.com - Avengers Infinity War (2018) English 720p WEB-DL X264 AC-3 5.1 4.6GB [MovCr].mkv
Format : Matroska
Format version : Version 4 / Version 2
File size : 4.60 GiB
Duration : 2 h 29 min
Overall bit rate : 4 397 kb/s
Movie name : www.MovCr.com
Encoded date : UTC 2018-07-30 14:54:37
Writing application : mkvmerge v23.0.0 ('The Bride Said No') 64-bit
Writing library : libebml v1.3.6 + libmatroska v1.4.9

Video
ID : 2
Format : AVC
Format/Info : Advanced Video Codec
Format profile : [email protected]
Format settings : 2 Ref Frames
Format settings, CABAC : No
Format settings, RefFrames : 2 frames
Codec ID : V_MPEG4/ISO/AVC
Duration : 2 h 29 min
Bit rate : 4 012 kb/s
Width : 1 280 pixels
Height : 536 pixels
Display aspect ratio : 2.40:1
Frame rate mode : Constant
Frame rate : 23.976 FPS
Color space : YUV
Chroma subsampling : 4:2:0
Bit depth : 8 bits
Scan type : Progressive
Bits/(Pixel*Frame) : 0.244
Stream size : 4.19 GiB (91%)
Title : www.MovCr.com
Language : English
Default : Yes
Forced : No
Color range : Limited
Color primaries : BT.709
Transfer characteristics : BT.709
Matrix coefficients : BT.709

Audio
ID : 1
Format : AC-3
Format/Info : Audio Coding 3
Codec ID : A_AC3
Duration : 2 h 29 min
Bit rate mode : Constant
Bit rate : 384 kb/s
Channel(s) : 6 channels
Channel positions : Front: L C R, Side: L R, LFE
Sampling rate : 48.0 kHz
Frame rate : 31.250 FPS (1536 SPF)
Bit depth : 16 bits
Compression mode : Lossy
Delay relative to video : -43 ms
Stream size : 410 MiB (9%)
Title : www.MovCr.com
Language : English
Service kind : Complete Main
Default : Yes
Forced : No















Similar Torrents

No Similar Torrents Found

If we find similar torrents, we normally show them right here. We couldn't find anything for "".

Torrent Trackers

Files inside this torrent

FILENAMESIZE
icon www.MovCr.com.txt43 B
icon www.MovCr.com - Avengers Infinity War (2018) English 720p WEB-DL X264 AC-3 5.1 4.6GB [MovCr].mkv4.6 GB