Warning! Do NOT Download Without a VPN!
Your IP Address is .   Location is
Your Internet Provider and Government can track your download activities! Hide your IP ADDRESS with a VPN!
We strongly recommend using a VPN service to anonymize your torrent downloads. It's FREE!
START YOUR FREE TRIAL NOW!

Torrent Details

Deadpool 2 2018 Super Duper Cut UNRATED 1080p AMZN WEBRip DDP5 1 x264 - MoviesM<font color=#ccc>B</font>
Deadpool 2 2018 Super Duper Cut UNRATED 1080p AMZN WEBRip DDP5 1 x264 - MoviesMB
Size9.5 GB in 4 files
ReleasesAdded on 10/26/18 at 1:19pm into the Movies category by Unknown.
Status0 seeds & 0 peers.
Hash85ac409192d752768ff06cbc8ab0e25acda00936
Rating
  • YourBT Visitors

Status This torrent has been verified.
*

Torrent Description

Deadpool 2 2018 Super Duper Cut UNRATED 1080p AMZN WEBRip DDP5.1 x264 - MoviesMB


MoviesMB.Com

Downloadhub.Icu


Buy PowerFull VPS And RDP From RDPArena.com

Use Coupon EXTRADESI get 30% Discount on All RDP and VPS Plans



Format : Matroska
Format version : Version 4 / Version 2
File size : 9.52 GiB
Duration : 2 h 14 min
Overall bit rate : 10.2 Mb/s


Video
ID : 1
Format : AVC
Format/Info : Advanced Video Codec
Format profile : [email protected]
Format settings : CABAC / 4 Ref Frames
Format settings, CABAC : Yes
Format settings, ReFrames : 4 frames
Codec ID : V_MPEG4/ISO/AVC
Duration : 2 h 14 min
Bit rate mode : Constant
Bit rate : 10 000 kb/s
Width : 1 920 pixels
Height : 1 080 pixels
Display aspect ratio : 16:9
Frame rate mode : Constant
Frame rate : 23.976 (24000/1001) FPS
Color space : YUV
Chroma subsampling : 4:2:0
Bit depth : 8 bits
Scan type : Progressive
Bits/(Pixel*Frame) : 0.201
Stream size : 9.28 GiB (97%)
Language : English
Default : Yes
Forced : No
Color range : Limited
Color primaries : BT.709
Transfer characteristics : BT.709
Matrix coefficients : BT.709


Audio
ID : 2
Format : E-AC-3
Format/Info : Enhanced Audio Coding 3
Codec ID : A_EAC3
Duration : 2 h 14 min
Bit rate mode : Constant
Bit rate : 256 kb/s
Channel(s) : 6 channels
Channel positions : Front: L C R, Side: L R, LFE
Sampling rate : 48.0 kHz
Frame rate : 187.500 FPS (256 SPF)
Compression mode : Lossy
Stream size : 245 MiB (3%)
Language : English
Service kind : Complete Main
Default : Yes
Forced : No

Text
ID : 3
Format : UTF-8
Codec ID : S_TEXT/UTF8
Codec ID/Info : UTF-8 Plain Text
Duration : 2 h 13 min
Bit rate : 69 b/s
Count of elements : 2427
Stream size : 67.5 KiB (0%)
Language : English
Default : No
Forced : No


Deadpool 2 2018 Super Duper Cut UNRATED 1080p AMZN WEBRip DDP5.1 x264 - MoviesMB






Similar Torrents

No Similar Torrents Found

If we find similar torrents, we normally show them right here. We couldn't find anything for "".

Torrent Trackers

Files inside this torrent

FILENAMESIZE
icon Deadpool 2 2018 Super Duper Cut UNRATED 1080p AMZN WEBRip DDP5.1 x264 - MoviesMB.mkv9.5 GB
icon Buy RDP - RDPArena.com.url121 B
icon Downloadhub.icu Free 300MB Movies Download.url114 B
icon Download Latest Movies From MoviesMb.Com.url111 B