Warning! Do NOT Download Without a VPN!
Your IP Address is .   Location is
Your Internet Provider and Government can track your download activities! Hide your IP ADDRESS with a VPN!
We strongly recommend using a VPN service to anonymize your torrent downloads. It's FREE!
START YOUR FREE TRIAL NOW!

Torrent Details

Solo A Star Wars Story 2018 BRRip XviD B4ND1T69
Solo A Star Wars Story 2018 BRRip XviD B4ND1T69
Size1.6 GB in 5 files
ReleasesAdded on 10/28/18 at 10:24pm into the Movies category by Unknown.
Status0 seeds & 0 peers.
Hashee278d02efa38edd681ff44e74583c2d014fc893
Rating
  • YourBT Visitors

Status This torrent has been verified.
*

Torrent Description

Solo.A.Star.Wars.Story.2018.BRRip.XviD.B4ND1T69



Director: Ron Howard
Writers: Jonathan Kasdan, Lawrence Kasdan
Stars: Alden Ehrenreich, Woody Harrelson, Emilia Clarke

Plot/Story:
With the emerging demand of hyperfuel and other resources, Han Solo finds himself in the middle of a heist alongside other criminals, where they meet the likes of Chewbacca and Lando Calrissian in an adventurous situation exposing the criminal underworld.

General
Complete name : Solo.A.Star.Wars.Story.2018.BRRip.XviD.B4ND1T69.avi
Format : AVI
Format/Info : Audio Video Interleave
File size : 1.58 GiB
Duration : 2 h 14 min
Overall bit rate : 1 677 kb/s
Subtitles : Yes...Included(HI)

Video
ID : 0
Format : MPEG-4 Visual
Format profile : Advanced [email protected]
Format settings, BVOP : 2
Format settings, QPel : Yes
Format settings, GMC : No warppoints
Format settings, Matrix : Default (H.263)
Codec ID : XVID
Codec ID/Hint : XviD
Duration : 2 h 14 min
Bit rate : 1 536 kb/s
Width : 720 pixels
Height : 304 pixels
Display aspect ratio : 2.35:1
Frame rate : 23.976 (24000/1001) FPS
Original frame rate : 23.976 (23976/1000) FPS
Color space : YUV
Chroma subsampling : 4:2:0
Bit depth : 8 bits
Scan type : Progressive
Compression mode : Lossy
Bits/(Pixel*Frame) : 0.293
Stream size : 1.45 GiB (92%)
Writing library : XviD 64

Audio
ID : 1
Format : MPEG Audio
Format version : Version 1
Format profile : Layer 3
Codec ID : 55
Codec ID/Hint : MP3
Duration : 2 h 14 min
Source duration : 2 h 14 min
Bit rate mode : Constant
Bit rate : 128 kb/s
Channel(s) : 2 channels
Sampling rate : 48.0 kHz
Compression mode : Lossy
Stream size : 123 MiB (8%)
Alignment : Split accross interleaves
Interleave, duration : 24 ms (0.58 video frame)

Screenshots:









Please Seed For As Long As Possible
Or At Least 1:1 Ratio...Thanks
Enjoy Peeps



Similar Torrents

No Similar Torrents Found

If we find similar torrents, we normally show them right here. We couldn't find anything for "".

Torrent Trackers

Files inside this torrent

FILENAMESIZE
icon 1337x text file.txt61 B
icon Seeded by Seedplease SeedBoxes.txt198 B
icon Solo.A.Star.Wars.Story.2018.BRRip.XviD.B4ND1T69.srt147.1 KB
icon Downloaded from katcr.co.txt139 B
icon Solo.A.Star.Wars.Story.2018.BRRip.XviD.B4ND1T69.avi1.6 GB