Warning! Do NOT Download Without a VPN!
Your IP Address is .   Location is
Your Internet Provider and Government can track your download activities! Hide your IP ADDRESS with a VPN!
We strongly recommend using a VPN service to anonymize your torrent downloads. It's FREE!
START YOUR FREE TRIAL NOW!

Torrent Details

Solo A Star Wars Story (2018) x 1608 (2160p) HDR 5 1 x265 10bit Phun Psyz
Solo A Star Wars Story (2018) x 1608 (2160p) HDR 5 1 x265 10bit Phun Psyz
Size3.1 GB in 1 file
ReleasesAdded on 10/31/18 at 4:50pm into the Movies category by Unknown.
Status0 seeds & 0 peers.
Hashe3016301254a12202dd22739eef6ca0688e06699
Rating
  • YourBT Visitors

Status This torrent has been verified.
*

Torrent Description

http://www.imdb.com/title/tt3778644/

During an adventure into the criminal underworld, Han Solo meets his future co-pilot Chewbacca and encounters Lando Calrissian years before joining the Rebellion.

Source: 4K Remux HDR







Format                      : Matroska
Format version              : Version 4 / Version 2
File size                   : 3.14 GiB
Duration                    : 2 h 14 min
Overall bit rate            : 3 334 kb/s

Video
ID                          : 1
Format                      : HEVC
Format/Info                 : High Efficiency Video Coding
Format profile              : Main 10@L5@High
Codec ID                    : V_MPEGH/ISO/HEVC
Duration                    : 2 h 14 min
Bit rate                    : 2 948 kb/s
Width                       : 3 840 pixels
Height                      : 1 608 pixels
Display aspect ratio        : 2.40:1
Frame rate mode             : Constant
Frame rate                  : 23.976 (24000/1001) FPS
Color space                 : YUV
Chroma subsampling          : 4:2:0
Bit depth                   : 10 bits
Bits/(Pixel*Frame)          : 0.020
Stream size                 : 2.77 GiB (88%)
Writing library             : x265 2.6:[Windows][GCC 7.1.0][64 bit] 10bit

Audio
ID                          : 2
Format                      : AC-3
Format/Info                 : Audio Coding 3
Commercial name             : Dolby Digital
Codec ID                    : A_AC3
Duration                    : 2 h 14 min
Bit rate mode               : Constant
Bit rate                    : 320 kb/s
Channel(s)                  : 6 channels
Channel layout              : L R C LFE Ls Rs
Sampling rate               : 48.0 kHz
Frame rate                  : 31.250 FPS (1536 SPF)
Bit depth                   : 16 bits
Compression mode            : Lossy
Stream size                 : 308 MiB (10%)
Title                       : Surround
Language                    : English
Service kind                : Complete Main
Default                     : Yes
Forced                      : No

Text
Language                    : English
Language                    : French
Language                    : Spanish
Language                    : Korean
Language                    : Thai
Language                    : Chinese
Language                    : Chinese
Language                    : English
Language                    : French
Language                    : Spanish
Language                    : Thai
Default                     : No
Forced                      : No



Similar Torrents

No Similar Torrents Found

If we find similar torrents, we normally show them right here. We couldn't find anything for "".

Torrent Trackers

Files inside this torrent

FILENAMESIZE
icon Solo A Star Wars Story (2018) x 1608 (2160p) HDR 5.1 x265 10bit Phun Psyz.mkv3.1 GB