Warning! Do NOT Download Without a VPN!
Your IP Address is .   Location is
Your Internet Provider and Government can track your download activities! Hide your IP ADDRESS with a VPN!
We strongly recommend using a VPN service to anonymize your torrent downloads. It's FREE!
START YOUR FREE TRIAL NOW!

Torrent Details

Avengers Infinity War 2018 1080p BluRay x264 Multi-Audio[Hindi-English][(Org)DD 5 1][Tamil-Telugu][DD 2 0] <font color=#ccc>- Hon3y</font>
Avengers Infinity War 2018 1080p BluRay x264 Multi-Audio[Hindi-English][(Org)DD 5 1][Tamil-Telugu][DD 2 0] - Hon3y
Size5.7 GB in 3 files
ReleasesAdded on 11/05/18 at 1:01am into the Movies category by Unknown.
Status0 seeds & 0 peers.
Hashcb9a68dd9acc22cd9206f14144e2726997046676
Rating
  • YourBT Visitors

Status This torrent has been verified.
*

Torrent Description



R3al_Star and R3al_Warrior is now as W3apoN-X





Avengers.Infinity.War.2018.1080p.BluRay.x264.Multi-Audio[Hindi-English][(Org)DD.5.1][Tamil-Telugu][DD.2.0].-.Hon3y

Format : Matroska
Format version : Version 4 / Version 2
File size : 5.65 GiB
Duration : 2h 29mn
Overall bit rate : 5 420 Kbps
Movie name : Avengers.Infinity.War.2018.1080p.BluRay.x264.Multi-Audio[Hindi-English][(Org)DD.5.1][Tamil-Telugu][DD.2.0].-.Hon3y


Video
ID : 1
Format : AVC
Format/Info : Advanced Video Codec
Format profile : [email protected]
Format settings, CABAC : Yes
Format settings, ReFrames : 5 frames
Codec ID : V_MPEG4/ISO/AVC
Duration : 2h 29mn
Bit rate : 3 400 Kbps
Width : 1 920 pixels
Height : 804 pixels
Display aspect ratio : 2.40:1
Frame rate mode : Constant
Frame rate : 23.976 fps
Default : Yes
Forced : Yes
Color primaries : BT.709
Transfer characteristics : BT.709
Matrix coefficients : BT.709

Audio #1
ID : 2
Format : AC-3
Format/Info : Audio Coding 3
Mode extension : CM (complete main)
Format settings, Endianness : Big
Codec ID : A_AC3
Duration : 2h 29mn
Bit rate mode : Constant
Bit rate : 640 Kbps
Channel(s) : 6 channels
Channel positions : Front: L C R, Side: L R, LFE
Sampling rate : 48.0 KHz
Bit depth : 16 bits
Compression mode : Lossy
Stream size : 684 MiB (12%)
Title : ?????? [Hindi] Dolby Digital 5.1 640 Kbps---W3apoN-X...Hon3yHD
Language : Hindi
Default : Yes
Forced : Yes

Audio #2
ID : 3
Format : AC-3
Format/Info : Audio Coding 3
Mode extension : CM (complete main)
Format settings, Endianness : Big
Codec ID : A_AC3
Duration : 2h 29mn
Bit rate mode : Constant
Bit rate : 448 Kbps
Channel(s) : 2 channels
Channel positions : Front: L R
Sampling rate : 48.0 KHz
Bit depth : 16 bits
Compression mode : Lossy
Stream size : 479 MiB (8%)
Title : ????? [Tamil] Dolby Digital 2.0 448 Kbps---W3apoN-X...Hon3yHD
Language : Tamil
Default : No
Forced : No

Audio #3
ID : 4
Format : AC-3
Format/Info : Audio Coding 3
Mode extension : CM (complete main)
Format settings, Endianness : Big
Codec ID : A_AC3
Duration : 2h 29mn
Bit rate mode : Constant
Bit rate : 448 Kbps
Channel(s) : 2 channels
Channel positions : Front: L R
Sampling rate : 48.0 KHz
Bit depth : 16 bits
Compression mode : Lossy
Stream size : 479 MiB (8%)
Title : ?????? [Telugu] Dolby Digital 2.0 448 Kbps---W3apoN-X...Hon3yHD
Language : Telugu
Default : No
Forced : No

Audio #4
ID : 5
Format : AC-3
Format/Info : Audio Coding 3
Mode extension : CM (complete main)
Format settings, Endianness : Big
Codec ID : A_AC3
Duration : 2h 29mn
Bit rate mode : Constant
Bit rate : 448 Kbps
Channel(s) : 6 channels
Channel positions : Front: L C R, Side: L R, LFE
Sampling rate : 48.0 KHz
Bit depth : 16 bits
Compression mode : Lossy
Stream size : 479 MiB (8%)
Title : English Dolby Digital 5.1 448 Kbps---W3apoN-X...Hon3yHD
Language : English
Default : No
Forced : No

Text #1
ID : 6
Format : PGS
Codec ID : S_HDMV/PGS
Codec ID/Info : The same subtitle format used on BDs/HD-DVDs
Title : English---W3apoN-X...Hon3yHD
Language : English
Default : No
Forced : No

Text #2
ID : 7
Format : PGS
Codec ID : S_HDMV/PGS
Codec ID/Info : The same subtitle format used on BDs/HD-DVDs
Title : English---W3apoN-X...Hon3yHD
Language : English
Default : Yes
Forced : Yes

Menu
00:00:00.000 : :Chapter 1
00:11:28.729 : :Chapter 2
00:18:13.884 : :Chapter 3
00:27:23.808 : :Chapter 4
00:35:48.813 : :Chapter 5
00:42:23.541 : :Chapter 6
00:54:12.874 : :Chapter 7
00:59:36.739 : :Chapter 8
01:05:07.153 : :Chapter 9
01:10:53.666 : :Chapter 10
01:17:06.955 : :Chapter 11
01:24:14.758 : :Chapter 12
01:31:08.004 : :Chapter 13
01:42:00.405 : :Chapter 14
01:45:57.809 : :Chapter 15
01:53:04.068 : :Chapter 16
01:58:52.917 : :Chapter 17
02:03:58.180 : :Chapter 18
02:11:13.282 : :Chapter 19
02:17:31.284 : :Chapter 20
02:29:20.993 : :Chapter 21


Tamil, Telugu Sterio audios but effect and quality improved, Best quality audio till now









[/align]



Similar Torrents

No Similar Torrents Found

If we find similar torrents, we normally show them right here. We couldn't find anything for "".

Torrent Trackers

Files inside this torrent

FILENAMESIZE
icon Torrent Seed By www.cyber-planet.in.txt94 B
icon Avengers.Infinity.War.2018.1080p.BluRay.x264.Multi-Audio[Hindi-English][(Org)DD.5.1][Tamil-Telugu][DD.2.0].-.Hon3y.mkv5.7 GB
icon Hon3yHD.com.txt39 B