Warning! Do NOT Download Without a VPN!
Your IP Address is .   Location is
Your Internet Provider and Government can track your download activities! Hide your IP ADDRESS with a VPN!
We strongly recommend using a VPN service to anonymize your torrent downloads. It's FREE!
START YOUR FREE TRIAL NOW!

Torrent Details

Fantastic Beasts The Crimes of Grindelwald (2018) 720p English NEW HDCAM x264 AAC 950MB [MovCr]
Fantastic Beasts The Crimes of Grindelwald (2018) 720p English NEW HDCAM x264 AAC 950MB [MovCr]
Size942 MB in 1 file
ReleasesAdded on 11/17/18 at 7:00am into the Movies category by Unknown.
Status0 seeds & 0 peers.
Hasha860e7e0a7cba73da09ff692a6f516f87474d730
Rating
  • YourBT Visitors

Status This torrent has been verified.
*

Torrent Description

Our Site  www.movcr.cc


Fantastic Beasts The Crimes of Grindelwald (2018) 720p English NEW HDCAM x264 AAC 950MB [MovCr]



https://www.imdb.com/title/tt4123430/




General
Unique ID                                : 148054471921951878006369460654743236355 (0x6F62410BE0BF30E856126091008C2F03)
Complete name                            : www.MovCr.cc - Fantastic Beasts The Crimes of Grindelwald (2018) 720p English NEW HDCAM x264 AAC 950MB [MovCr].mkv
Format                                   : Matroska
Format version                           : Version 4 / Version 2
File size                                : 942 MiB
Duration                                 : 2 h 4 min
Overall bit rate                         : 1 059 kb/s
Movie name                               : www.MovCr.cc
Encoded date                             : UTC 2018-11-17 05:43:04
Writing application                      : mkvmerge v26.0.0 ('In The Game') 64-bit
Writing library                          : libebml v1.3.6 + libmatroska v1.4.9

Video
ID                                       : 1
Format                                   : AVC
Format/Info                              : Advanced Video Codec
Format profile                           : [email protected]
Format settings                          : 2 Ref Frames
Format settings, CABAC                   : No
Format settings, RefFrames               : 2 frames
Format settings, GOP                     : M=1, N=25
Codec ID                                 : V_MPEG4/ISO/AVC
Duration                                 : 2 h 4 min
Bit rate                                 : 861 kb/s
Width                                    : 1 280 pixels
Height                                   : 544 pixels
Display aspect ratio                     : 2.35:1
Frame rate mode                          : Constant
Frame rate                               : 29.970 (30000/1001) FPS
Color space                              : YUV
Chroma subsampling                       : 4:2:0
Bit depth                                : 8 bits
Scan type                                : Progressive
Bits/(Pixel*Frame)                       : 0.041
Stream size                              : 766 MiB (81%)
Title                                    : www.MovCr.cc
Default                                  : Yes
Forced                                   : No

Audio
ID                                       : 2
Format                                   : AAC
Format/Info                              : Advanced Audio Codec
Format profile                           : LC
Codec ID                                 : A_AAC-2
Duration                                 : 2 h 4 min
Bit rate                                 : 192 kb/s
Channel(s)                               : 2 channels
Channel positions                        : Front: L R
Sampling rate                            : 48.0 kHz
Frame rate                               : 46.875 FPS (1024 SPF)
Compression mode                         : Lossy
Stream size                              : 173 MiB (18%)
Title                                    : www.MovCr.cc
Language                                 : English
Default                                  : Yes
Forced                                   : No





Similar Torrents

No Similar Torrents Found

If we find similar torrents, we normally show them right here. We couldn't find anything for "".

Torrent Trackers

Files inside this torrent

FILENAMESIZE
icon www.MovCr.cc - Fantastic Beasts The Crimes of Grindelwald (2018) 720p English NEW HDCAM x264 AAC 950MB [MovCr].mkv942.1 MB