Warning! Do NOT Download Without a VPN!
Your IP Address is .   Location is
Your Internet Provider and Government can track your download activities! Hide your IP ADDRESS with a VPN!
We strongly recommend using a VPN service to anonymize your torrent downloads. It's FREE!
START YOUR FREE TRIAL NOW!

Torrent Details

1337xHD Com-Fantastic Beasts The Crimes of Grindelwald (2018) Dual Audio 720p HDCAM [Audio Line] [Hindi-English] x264 1 1GB mp4 - openload
1337xHD Com-Fantastic Beasts The Crimes of Grindelwald (2018) Dual Audio 720p HDCAM [Audio Line] [Hindi-English] x264 1 1GB mp4 - openload
Size1.1 GB in 1 file
ReleasesAdded on 11/17/18 at 11:40am into the Movies category by Unknown.
Status0 seeds & 0 peers.
Hash604ff5178b5f91260eade37f9ae60b08b64e0dbc
Rating
  • YourBT Visitors

Status This torrent has been verified.
*

Torrent Description

https://hdfilmboss.mobi/
https://1337xhd.com/



Official Website https://hdfilmboss.mobi/
Official Website https://1337xhd.com/



General
Format : Matroska
Format version : Version 4
File size : 1.08 GiB
Duration : 2 h 5 min
Overall bit rate : 1 227 kb/s
Movie name : HDFilmBoss.Mobi
Encoded date : UTC 2018-11-17 10:23:35
Writing application : mkvmerge v27.0.0 ('Metropolis') 64-bit
Writing library : libebml v1.3.6 + libmatroska v1.4.9

Video
ID : 1
Format : AVC
Format/Info : Advanced Video Codec
Format profile : [email protected]
Format settings : CABAC / 4 Ref Frames
Format settings, CABAC : Yes
Format settings, ReFrames : 4 frames
Codec ID : V_MPEG4/ISO/AVC
Duration : 2 h 5 min
Bit rate : 1 146 kb/s
Width : 1 280 pixels
Height : 536 pixels
Display aspect ratio : 2.40:1
Frame rate mode : Constant
Frame rate : 25.000 FPS
Color space : YUV
Chroma subsampling : 4:2:0
Bit depth : 8 bits
Scan type : Progressive
Bits/(Pixel*Frame) : 0.067
Stream size : 1.00 GiB (93%)
Title : WWW.1337xHD.Com
Writing library : x264 core 148 r2643 5c65704
Language : Hindi
Default : Yes
Forced : No

Audio
ID : 2
Format : AAC LC
Format/Info : Advanced Audio Codec Low Complexity
Codec ID : A_AAC-2
Duration : 2 h 5 min
Bit rate : 80.0 kb/s
Channel(s) : 1 channel
Channel layout : C
Sampling rate : 44.1 kHz
Frame rate : 43.066 FPS (1024 SPF)
Compression mode : Lossy
Delay relative to video : -46 ms
Stream size : 71.8 MiB (7%)
Title : 1337xHD.Com
Language : Hindi
Default : Yes
Forced : No












Similar Torrents

No Similar Torrents Found

If we find similar torrents, we normally show them right here. We couldn't find anything for "".

Torrent Trackers

Files inside this torrent

FILENAMESIZE
icon 1337xHD.Com-Fantastic Beasts The Crimes of Grindelwald (2018) Dual Audio 720p HDCAM [Audio Line] [Hindi-English] x264 1.1GB.mp4 - openload.mkv1.1 GB