Warning! Do NOT Download Without a VPN!
Your IP Address is .   Location is
Your Internet Provider and Government can track your download activities! Hide your IP ADDRESS with a VPN!
We strongly recommend using a VPN service to anonymize your torrent downloads. It's FREE!
START YOUR FREE TRIAL NOW!

Torrent Details

[MovCr com] - Avengers Infinity War (2018) Telugu(Original Audio) -  BDRip - x264 - 500MB - MP3 -  ESub - MovC<font color=#ccc>r</font>
[MovCr com] - Avengers Infinity War (2018) Telugu(Original Audio) - BDRip - x264 - 500MB - MP3 - ESub - MovCr
Size502 MB in 1 file
ReleasesAdded on 11/02/18 at 8:55pm into the Movies category by Unknown.
Status0 seeds & 0 peers.
Hashd1539693db79d8aa5e8a9ca26c962fa3d22af9cb
Rating
  • YourBT Visitors

Status This torrent has been verified.
*

Torrent Description

Avengers Infinity War (2018) Telugu(Original Audio) - BDRip - x264 - 500MB - MP3 - ESub - MovCr


General
Unique ID : 232635439702910546013255187950476525229 (0xAF03F4B8CEF47ADD9D9D93F35270FEAD)
Complete name : D:[MovCr.com] - Avengers Infinity War (2018) Telugu(Original Audio) - BDRip - x264 - 500MB - MP3 - ESub - MovCr.mkv
Format : Matroska
Format version : Version 4 / Version 2
File size : 502 MiB
Duration : 2 h 29 min
Overall bit rate : 470 kb/s
Movie name : www.MovCr.com
Encoded date : UTC 2018-08-17 05:15:12
Writing application : mkvmerge v11.0.0 ('Alive') 32bit
Writing library : libebml v1.3.4 + libmatroska v1.4.5

Video
ID : 1
Format : AVC
Format/Info : Advanced Video Codec
Format profile : [email protected]
Format settings : CABAC / 5 Ref Frames
Format settings, CABAC : Yes
Format settings, ReFrames : 5 frames
Codec ID : V_MPEG4/ISO/AVC
Duration : 2 h 29 min
Bit rate : 340 kb/s
Width : 720 pixels
Height : 304 pixels
Display aspect ratio : 2.35:1
Frame rate mode : Constant
Frame rate : 23.976 (24000/1001) FPS
Color space : YUV
Chroma subsampling : 4:2:0
Bit depth : 8 bits
Scan type : Progressive
Bits/(Pixel*Frame) : 0.065
Stream size : 363 MiB (72%)
Title : www.MovCr.com
Writing library : x264 core 148 r2744 b97ae06
Encoding settings : cabac=1 / ref=5 / deblock=1:0:0 / analyse=0x3:0x113 / me=hex / subme=8 / psy=1 / psy_rd=1.00:0.00 / mixed_ref=1 / me_range=16 / chroma_me=1 / trellis=2 / 8x8dct=1 / cqm=0 / deadzone=21,11 / fast_pskip=1 / chroma_qp_offset=-2 / threads=9 / lookahead_threads=1 / sliced_threads=0 / nr=0 / decimate=1 / interlaced=0 / bluray_compat=0 / constrained_intra=0 / bframes=3 / b_pyramid=2 / b_adapt=1 / b_bias=0 / direct=3 / weightb=1 / open_gop=0 / weightp=2 / keyint=240 / keyint_min=23 / scenecut=40 / intra_refresh=0 / rc_lookahead=50 / rc=2pass / mbtree=1 / bitrate=340 / ratetol=1.0 / qcomp=0.60 / qpmin=0 / qpmax=69 / qpstep=4 / cplxblur=20.0 / qblur=0.5 / ip_ratio=1.40 / aq=1:1.00
Language : English
Default : Yes
Forced : No

Audio
ID : 2
Format : MPEG Audio
Format version : Version 1
Format profile : Layer 3
Format settings : Joint stereo
Codec ID : A_MPEG/L3
Codec ID/Hint : MP3
Duration : 2 h 29 min
Bit rate mode : Constant
Bit rate : 128 kb/s
Channel(s) : 2 channels
Sampling rate : 48.0 kHz
Frame rate : 41.667 FPS (1152 SPF)
Compression mode : Lossy
Stream size : 137 MiB (27%)
Title : www.MovCr.com
Language : Telugu
Default : Yes
Forced : No

Text
ID : 3
Format : UTF-8
Codec ID : S_TEXT/UTF8
Codec ID/Info : UTF-8 Plain Text
Duration : 2 h 28 min
Bit rate : 42 b/s
Count of elements : 1724
Stream size : 46.5 KiB (0%)
Title : www.MovCr.com
Language : English
Default : Yes
Forced : No







Similar Torrents

No Similar Torrents Found

If we find similar torrents, we normally show them right here. We couldn't find anything for "".

Torrent Trackers

Files inside this torrent

FILENAMESIZE
icon [MovCr.com] - Avengers Infinity War (2018) Telugu(Original Audio) - BDRip - x264 - 500MB - MP3 - ESub - MovCr.mkv502 MB