Warning! Do NOT Download Without a VPN!
Your IP Address is .   Location is
Your Internet Provider and Government can track your download activities! Hide your IP ADDRESS with a VPN!
We strongly recommend using a VPN service to anonymize your torrent downloads. It's FREE!
START YOUR FREE TRIAL NOW!

Torrent Details

Avengers Infinity War 2018 x264 720p Esub BluRay Dual Audio English Hindi GOPISAHI
Avengers Infinity War 2018 x264 720p Esub BluRay Dual Audio English Hindi GOPISAHI
Size956 MB in 1 file
ReleasesAdded on 11/03/18 at 2:57am into the Movies category by Unknown.
Status0 seeds & 0 peers.
Hashb4653a2cb8ebc72a1f56d560a5d7aa2a66ccd2b9
Rating
  • YourBT Visitors

Status This torrent has been verified.
*

Torrent Description

https://www.gopisahi.pw/

Format : Matroska
Format version : Version 4 / Version 2
File size : 956 MiB
Duration : 2 h 29 min
Overall bit rate : 895 kb/s
Movie name : Avengers Infinity War 2018 GOPISAHI

Video
Format : AVC
Format/Info : Advanced Video Codec
Codec ID : V_MPEG4/ISO/AVC
Duration : 2 h 29 min
Bit rate : 699 kb/s
Width : 1 280 pixels
Height : 534 pixels
Display aspect ratio : 2.40:1
Frame rate mode : Constant
Frame rate : 23.976 (24000/1001) FPS
Color space : YUV
Chroma subsampling : 4:2:0
Bit depth : 8 bits
Scan type : Progressive
Bits/(Pixel*Frame) : 0.043
Stream size : 747 MiB (78%)
Title : GOPISAHI
Writing library : x264 core 155 r2901 7d0ff22

Audio #1
Format : AAC
Duration : 2 h 29 min
Bit rate : 96.0 kb/s
Channel(s) : 2 channels
Channel positions : Front: L R
Sampling rate : 48.0 kHz
Frame rate : 46.875 FPS (1024 SPF)
Compression mode : Lossy
Delay relative to video : -21 ms
Stream size : 103 MiB (11%)
Title : GOPISAHI
Language : Hindi

Audio #2
Format : AAC
Duration : 2 h 29 min
Bit rate : 96.0 kb/s
Channel(s) : 2 channels
Channel positions : Front: L R
Sampling rate : 48.0 kHz
Frame rate : 46.875 FPS (1024 SPF)
Compression mode : Lossy
Delay relative to video : -21 ms
Stream size : 103 MiB (11%)
Title : GOPISAHI
Language : English

Text
Language : English

Menu
00:00:00.000 : en:Chapter 1
00:11:28.730 : en:Chapter 2
00:18:13.884 : en:Chapter 3
00:27:23.809 : en:Chapter 4
00:35:48.813 : en:Chapter 5
00:42:23.541 : en:Chapter 6
00:54:12.875 : en:Chapter 7
00:59:36.740 : en:Chapter 8
01:05:07.153 : en:Chapter 9
01:10:53.666 : en:Chapter 10
01:17:06.956 : en:Chapter 11
01:24:14.758 : en:Chapter 12
01:31:08.004 : en:Chapter 13
01:42:00.406 : en:Chapter 14
01:45:57.810 : en:Chapter 15
01:53:04.069 : en:Chapter 16
01:58:52.917 : en:Chapter 17
02:03:58.181 : en:Chapter 18
02:11:13.282 : en:Chapter 19
02:17:31.285 : en:Chapter 20





Similar Torrents

No Similar Torrents Found

If we find similar torrents, we normally show them right here. We couldn't find anything for "".

Torrent Trackers

Files inside this torrent

FILENAMESIZE
icon Avengers Infinity War 2018 x264 720p Esub BluRay Dual Audio English Hindi GOPISAHI.mkv955.7 MB