Warning! Do NOT Download Without a VPN!
Your IP Address is .   Location is
Your Internet Provider and Government can track your download activities! Hide your IP ADDRESS with a VPN!
We strongly recommend using a VPN service to anonymize your torrent downloads. It's FREE!
START YOUR FREE TRIAL NOW!

Torrent Details

Avengers Infinity War 2018 720p BluRay x264 Dual Audio [Hindi DD 5 1 - English 2 0] ESub-Sun George-Movies DigitalMaz<font color=#ccc>a</font>
Avengers Infinity War 2018 720p BluRay x264 Dual Audio [Hindi DD 5 1 - English 2 0] ESub-Sun George-Movies DigitalMaza
Size2.2 GB in 3 files
ReleasesAdded on 11/03/18 at 3:12am into the Movies category by Unknown.
Status0 seeds & 0 peers.
Hash5837358f5138a94d55267c1b4496d1b373021798
Rating
  • YourBT Visitors

Status This torrent has been verified.
*

Torrent Description

Avengers Infinity War 2018 720p BluRay x264 Dual Audio [Hindi DD 5.1 - English 2.0] ESub-Sun George


For Direct Links Visit: Movies.Digitalmaza.Org

https://www.imdb.com/title/tt4154756/




========================

General
Format : Matroska
Format version : Version 4 / Version 2
File size : 2.14 GiB
Duration : 2 h 29 min
Overall bit rate : 2 048 kb/s
Movie name : Avengers Infinity War 2018 720p BluRay x264 Dual Audio [Hindi DD 5.1 - English 2.0] ESub-Sun George-Movies.DigitalMaza.Org
========================

Video
ID : 1
Format : AVC
Format/Info : Advanced Video Codec
Format profile : [email protected]
Format settings : CABAC / 4 Ref Frames
Format settings, CABAC : Yes
Format settings, RefFrames : 4 frames
Codec ID : V_MPEG4/ISO/AVC
Duration : 2 h 29 min
Bit rate : 1 684 kb/s
Width : 1 280 pixels
Height : 528 pixels
Display aspect ratio : 2.40:1
Frame rate mode : Constant
Frame rate : 23.976 (24000/1001) FPS
Color space : YUV
Chroma subsampling : 4:2:0
Bit depth : 8 bits
Scan type : Progressive
Bits/(Pixel*Frame) : 0.104
Stream size : 1.76 GiB (82%)
Title : Sun George-Movies.DigitalMaza.Org
Writing library : x264 core 152 r2851 ba24899
Default : Yes
Forced : No
========================

Audio #1
ID : 4
Format : AC-3
Format/Info : Audio Coding 3
Codec ID : A_AC3
Duration : 2 h 29 min
Bit rate mode : Constant
Bit rate : 224 kb/s
Channel(s) : 6 channels
Channel positions : Front: L C R, Side: L R, LFE
Sampling rate : 48.0 kHz
Frame rate : 31.250 FPS (1536 SPF)
Bit depth : 16 bits
Compression mode : Lossy
Stream size : 239 MiB (11%)
Title : Sun George-Movies.DigitalMaza.Org
Language : Hindi
Service kind : Complete Main
Default : Yes
Forced : No
========================

Audio #2
ID : 5
Format : AAC
Format/Info : Advanced Audio Codec
Format profile : LC
Codec ID : A_AAC-2
Duration : 2 h 29 min
Bit rate : 137 kb/s
Channel(s) : 2 channels
Channel positions : Front: L R
Sampling rate : 48.0 kHz
Frame rate : 46.875 FPS (1024 SPF)
Compression mode : Lossy
Stream size : 146 MiB (7%)
Title : Sun George-Movies.DigitalMaza.Org
Language : English
Default : No
Forced : No
========================

Text
ID : 2
Format : UTF-8
Codec ID : S_TEXT/UTF8
Codec ID/Info : UTF-8 Plain Text
Duration : 2 h 28 min
Bit rate : 42 b/s
Count of elements : 1724
Stream size : 46.5 KiB (0%)
Title : Sun George-Movies.DigitalMaza.Org
Language : English
Default : No
Forced : Yes

Text #2
ID : 3
Format : UTF-8
Codec ID : S_TEXT/UTF8
Codec ID/Info : UTF-8 Plain Text
Duration : 1 h 18 min
Bit rate : 1 b/s
Count of elements : 7
Stream size : 714 Bytes (0%)
Title : Sun George-Movies.DigitalMaza.Org
Default : Yes
Forced : Yes








Similar Torrents

No Similar Torrents Found

If we find similar torrents, we normally show them right here. We couldn't find anything for "".

Torrent Trackers

Files inside this torrent

FILENAMESIZE
icon INFO.NFO55 B
icon SAMPLE Avengers Infinity War 2018 720p BluRay x264 Dual Audio [Hindi DD 5.1 - English 2.0] ESub-Sun George.mkv20.3 MB
icon Avengers Infinity War 2018 720p BluRay x264 Dual Audio [Hindi DD 5.1 - English 2.0] ESub-Sun George.mkv2.1 GB