Warning! Do NOT Download Without a VPN!
Your IP Address is .   Location is
Your Internet Provider and Government can track your download activities! Hide your IP ADDRESS with a VPN!
We strongly recommend using a VPN service to anonymize your torrent downloads. It's FREE!
START YOUR FREE TRIAL NOW!

Torrent Details

Avengers Infinity War (2018) 720p BluRay Dual Audio HEVC [Hindi DD5 1-English DD2 1] x264 1 6GB Esub [HDFilmBoss Net]
Avengers Infinity War (2018) 720p BluRay Dual Audio HEVC [Hindi DD5 1-English DD2 1] x264 1 6GB Esub [HDFilmBoss Net]
Size1.6 GB in 1 file
ReleasesAdded on 11/08/18 at 8:58pm into the Movies category by Unknown.
Status0 seeds & 0 peers.
Hasha4331c520a650e980adc43859f3e50a81592d6d5
Rating
  • YourBT Visitors

Status This torrent has been verified.
*

Torrent Description

[right]https://hdfilmboss.net/



https://hdfilmboss.net/

General
Format                                   : MPEG-4
Format profile                           : Base Media
Codec ID                                 : isom (isom/iso2/avc1/mp41)
File size                                : 1.56 GiB
Duration                                 : 2 h 29 min
Overall bit rate                         : 1 496 kb/s
Movie name                               : Avengers Infinity War 2018 720p BluRay x264 Dual Audio [Hindi DD 5.1 - English 2.0] ESub [HDFilmBoss.Net]
Writing application                      : Lavf58.12.100

Video
ID                                       : 1
Format                                   : AVC
Format/Info                              : Advanced Video Codec
Format profile                           : [email protected]
Format settings                          : CABAC / 4 Ref Frames
Format settings, CABAC                   : Yes
Format settings, RefFrames               : 4 frames
Codec ID                                 : avc1
Codec ID/Info                            : Advanced Video Coding
Duration                                 : 2 h 29 min
Bit rate                                 : 1 365 kb/s
Width                                    : 1 280 pixels
Height                                   : 534 pixels
Display aspect ratio                     : 2.40:1
Frame rate mode                          : Constant
Frame rate                               : 25.000 FPS
Color space                              : YUV
Chroma subsampling                       : 4:2:0
Bit depth                                : 8 bits
Scan type                                : Progressive
Bits/(Pixel*Frame)                       : 0.080
Stream size                              : 1.42 GiB (91%)
Title                                    : [HDFilmBoss.Net]
Writing library                          : x264 core 148 r2643 5c65704

Audio
ID                                       : 2
Format                                   : AAC
Format/Info                              : Advanced Audio Codec
Format profile                           : LC
Codec ID                                 : mp4a-40-2
Duration                                 : 2 h 29 min
Duration_LastFrame                       : -6 ms
Bit rate mode                            : Constant
Bit rate                                 : 128 kb/s
Channel(s)                               : 2 channels
Channel positions                        : Front: L R
Sampling rate                            : 44.1 kHz
Frame rate                               : 43.066 FPS (1024 SPF)
Compression mode                         : Lossy
Stream size                              : 137 MiB (9%)
Language                                 : Hindi
Default                                  : Yes
Alternate group                          : 1




https://hdfilmboss.net/

[/right]



Similar Torrents

No Similar Torrents Found

If we find similar torrents, we normally show them right here. We couldn't find anything for "".

Torrent Trackers

Files inside this torrent

FILENAMESIZE
icon Avengers Infinity War (2018) 720p BluRay Dual Audio HEVC [Hindi DD5.1-English DD2.1] x264 1.6GB Esub [HDFilmBoss.Net].mp41.6 GB